[大陆][电视剧][祈今朝][2024][全36集][国语/内封简繁英字幕][MKV][H265][4K][共43.6G][无水印][BD][禁转] [百度网盘]

[复制链接]
2024-1-19 06:38:05   509    4 |阅读模式


◎标  题 祈今朝
◎译  名 仙剑六祈今朝 / 仙剑奇侠传六 / 仙剑六 / Sword and Fairy 6
◎年  代 2024
◎产  地 中国大陆
◎类  别 剧情 / 爱情 / 奇幻 / 古装
◎语  言 汉语普通话
◎IMDb链接 https://www.imdb.com/title/tt30949068/
◎豆瓣链接 https://movie.douban.com/subject/35597502/
◎导  演 刘国楠 Guonan Liu
◎编  剧 汪洪 Hong Wang
      陈泰龙 Tailong Chen
      余堃 Kun Yu
◎演  员 许凯 Kai Xu
      虞书欣 Shuxin Yu
      付辛博 Xinbo Fu
      万鹏 Peng Wan
      白冰可 Bingke Bai
      周历杰 Zhan Zhou
      薛八一 Bayi Xue
      加奈那 Cana
      韩栋 Dong Han
      刘敏 Min Liu
      陈紫函 Zihan Chen
      巩峥 Zheng Gong
      王子睿 Zirui Wang
      陈芷琰 Zhiyan Chen
      傅铂涵 Bohan Fu
      金梦翼 Mengyi Jin
      钟祺 Qi Zhong
      高飞 Fei Gao
      吴佳诺 Jianuo Wu

◎简  介
    越今朝和越祈二人在乌岩村相伴三年,有着神奇的“共鸣”关系,却对各自的身世一无所知。二人携手闯荡江湖,希望找回过往记忆。双越二人被卷入启魂圣宗作乱和洛家堡血祭等神秘事件之中,而在对抗圣宗过程中意外让越祈被封印的回忆和情感被开启。随着事件发展,双越结识了洛家堡双子洛埋名和洛昭言、千年狼妖闲卿、顾寒江和明绣师徒以及居十方等一众江湖人士,二人的真实身份也逐渐揭开。正武盟、启魂圣宗、衡道众、禺妖族,几大势力接踵而至,谁才是真正的幕后设局人?计中有计,局中有局,不惜舍身改命,只为今朝再聚。


##### MediaInfo ######
General
Unique ID : 63924822960806906275942282076511167474 (0x3017791B4FB01ADE6127AD91795663F2)
Complete name : Sword.and.Fairy.6.S01E01.2024.2160p.IQ.WEB-DL.H265.DDP-BlackTV.mkv
Duration : 41 min 41 s
Overall bit rate : 4 467 kb/s

Video
ID : 1
Format : HEVC
Format/Info : High Efficiency Video Coding
Format profile : Main@L5@Main
Codec ID : V_MPEGH/ISO/HEVC
Duration : 41 min 40 s
Bit rate : 4 179 kb/s
Width : 3 840 pixels
Height : 1 760 pixels
Display aspect ratio : 2.2:1
Frame rate mode : Constant
Frame rate : 25.000 FPS
Color space : YUV
Chroma subsampling : 4:2:0
Bit depth : 8 bits
Bits/(Pixel*Frame) : 0.025
Stream size : 1.22 GiB (94%)
Language : Chinese
Default : Yes
Forced : No
Color range : Limited

Audio #1
ID : 2
Format : E-AC-3
Format/Info : Enhanced AC-3
Commercial name : Dolby Digital Plus
Codec ID : A_EAC3
Duration : 41 min 40 s
Bit rate mode : Constant
Bit rate : 96.0 kb/s
Channel(s) : 2 channels
Channel layout : L R
Sampling rate : 48.0 kHz
Frame rate : 31.250 FPS (1536 SPF)
Compression mode : Lossy
Stream size : 28.6 MiB (2%)
Title : Mandarin [DDP2.0]
Language : Chinese
Service kind : Complete Main
Default : Yes
Forced : No

Audio #2
ID : 3
Format : AAC LC
Format/Info : Advanced Audio Codec Low Complexity
Codec ID : A_AAC-2
Duration : 41 min 41 s
Bit rate : 192 kb/s
Channel(s) : 2 channels
Channel layout : L R
Sampling rate : 44.1 kHz
Frame rate : 43.066 FPS (1024 SPF)
Compression mode : Lossy
Stream size : 56.6 MiB (4%)
Title : Mandarin [AAC2.0]
Language : Chinese
Default : No
Forced : No

Text #1
ID : 4
Format : UTF-8
Codec ID : S_TEXT/UTF8
Codec ID/Info : UTF-8 Plain Text
Duration : 36 min 23 s
Bit rate : 47 b/s
Frame rate : 0.306 FPS
Count of elements : 669
Stream size : 12.8 KiB (0%)
Title : Simplified Chinese
Language : Chinese
Default : Yes
Forced : No

Text #2
ID : 5
Format : UTF-8
Codec ID : S_TEXT/UTF8
Codec ID/Info : UTF-8 Plain Text
Duration : 36 min 23 s
Bit rate : 47 b/s
Frame rate : 0.306 FPS
Count of elements : 669
Stream size : 12.8 KiB (0%)
Title : Traditional Chinese
Language : Chinese
Default : No
Forced : No

Text #3
ID : 6
Format : UTF-8
Codec ID : S_TEXT/UTF8
Codec ID/Info : UTF-8 Plain Text
Duration : 41 min 23 s
Bit rate : 59 b/s
Frame rate : 0.292 FPS
Count of elements : 726
Stream size : 18.2 KiB (0%)
Title : English
Language : English
Default : No
Forced : No









链接:https://pan.baidu.com/s/15YewZTniwH4cWl2Ykcz6KA

购买主题 已有 20 人购买  本主题需向作者支付 12 CY币 才能浏览
jackywoo    2024-1-20 10:13:56
我看不错噢 谢谢楼主!
hellozyt    2024-1-22 18:54:42
这东西我收了!谢谢楼主!
芊菀芊荨    2024-2-6 08:42:15
已更完全集
丫头566    2024-2-11 22:43:59
看一看这个,应该不错吧
1.资源板块发帖标题有严格的要求,详情见:https://www.caiyawang.com/thread-2642-1-1.html

2.收费贴必须把除了提取码和压缩密码之外的所有信息设置为免费信息,免费信息指的是,其他用户不需要购买就可以看到的那部分内容,包括链接,方便用户购买前检验链接的有效性。

3.帖子设置了隐藏内容,需要回复可见,那么就不要设置收费。如果设置了收费,那么就不要再设置隐藏内容。
您需要登录后才可以回帖   登录 立即注册

高级模式

Powered by Discuz! X3.4 © Comsenz Inc.